999
dxfrw 0.6.3
  0
SECTION
  2
HEADER
  9
$ACADVER
  1
AC1021
  9
$DWGCODEPAGE
  3
ANSI_1252
  9
$INSBASE
 10
0
 20
0
 30
0
  9
$EXTMIN
 10
-2312.5
 20
-1425
 30
0
  9
$EXTMAX
 10
6300
 20
5612.5
 30
0
  9
$LIMMIN
 10
0
 20
0
  9
$LIMMAX
 10
420
 20
297
  9
$ORTHOMODE
 70
    0
  9
$REGENMODE
 70
    1
  9
$FILLMODE
 70
    1
  9
$QTEXTMODE
 70
    0
  9
$MIRRTEXT
 70
    0
  9
$LTSCALE
 40
1
  9
$ATTMODE
 70
    0
  9
$TEXTSIZE
 40
2.5
  9
$TRACEWID
 40
15.68
  9
$TEXTSTYLE
  7
STANDARD
  9
$CLAYER
  8
quote
  9
$CELTYPE
  6
BYLAYER
  9
$CECOLOR
 62
  256
  9
$CELTSCALE
 40
1
  9
$DISPSILH
 70
    0
  9
$DIMSCALE
 40
2.5
  9
$DIMASZ
 40
2.5
  9
$DIMEXO
 40
0.625
  9
$DIMDLI
 40
3.75
  9
$DIMRND
 40
0
  9
$DIMDLE
 40
0
  9
$DIMEXE
 40
1.25
  9
$DIMTP
 40
0
  9
$DIMTM
 40
0
  9
$DIMTXT
 40
2.5
  9
$DIMCEN
 40
2.5
  9
$DIMTSZ
 40
0
  9
$DIMTOL
 70
    0
  9
$DIMLIM
 70
    0
  9
$DIMTIH
 70
    0
  9
$DIMTOH
 70
    0
  9
$DIMSE1
 70
    0
  9
$DIMSE2
 70
    0
  9
$DIMTAD
 70
    1
  9
$DIMZIN
 70
    1
  9
$DIMBLK
  1

  9
$DIMASO
 70
    1
  9
$DIMSHO
 70
    1
  9
$DIMPOST
  1

  9
$DIMAPOST
  1

  9
$DIMALT
 70
    0
  9
$DIMALTD
 70
    3
  9
$DIMALTF
 40
0.03937
  9
$DIMLFAC
 40
1
  9
$DIMTOFL
 70
    1
  9
$DIMTVP
 40
0
  9
$DIMTIX
 70
    0
  9
$DIMSOXD
 70
    0
  9
$DIMSAH
 70
    0
  9
$DIMBLK1
  1

  9
$DIMBLK2
  1

  9
$DIMSTYLE
  2
STANDARD
  9
$DIMCLRD
 70
    0
  9
$DIMCLRE
 70
    0
  9
$DIMCLRT
 70
    0
  9
$DIMTFAC
 40
1
  9
$DIMGAP
 40
0.625
  9
$DIMJUST
 70
    0
  9
$DIMSD1
 70
    0
  9
$DIMSD2
 70
    0
  9
$DIMTOLJ
 70
    0
  9
$DIMTZIN
 70
    8
  9
$DIMALTZ
 70
    0
  9
$DIMALTTZ
 70
    0
  9
$DIMUPT
 70
    0
  9
$DIMDEC
 70
    2
  9
$DIMTDEC
 70
    2
  9
$DIMALTU
 70
    2
  9
$DIMALTTD
 70
    3
  9
$DIMTXSTY
  7
STANDARD
  9
$DIMAUNIT
 70
    0
  9
$DIMADEC
 70
    2
  9
$DIMALTRND
 40
0
  9
$DIMAZIN
 70
    0
  9
$DIMDSEP
 70
    0
  9
$DIMATFIT
 70
    3
  9
$DIMFRAC
 70
    0
  9
$DIMLDRBLK
  1
STANDARD
  9
$DIMLUNIT
 70
    2
  9
$DIMLWD
 70
   -2
  9
$DIMLWE
 70
   -2
  9
$DIMTMOVE
 70
    0
  9
$DIMFXL
 40
1
  9
$DIMFXLON
 70
    0
  9
$DIMJOGANG
 40
0.7854
  9
$DIMTFILL
 70
    0
  9
$DIMTFILLCLR
 70
    0
  9
$DIMARCSYM
 70
    0
  9
$DIMLTYPE
  6

  9
$DIMLTEX1
  6

  9
$DIMLTEX2
  6

  9
$LUNITS
 70
    2
  9
$LUPREC
 70
    4
  9
$SKETCHINC
 40
1
  9
$FILLETRAD
 40
0
  9
$AUNITS
 70
    0
  9
$AUPREC
 70
    2
  9
$MENU
  1
.
  9
$ELEVATION
 40
0
  9
$PELEVATION
 40
0
  9
$THICKNESS
 40
0
  9
$LIMCHECK
 70
    0
  9
$CHAMFERA
 40
0
  9
$CHAMFERB
 40
0
  9
$CHAMFERC
 40
0
  9
$CHAMFERD
 40
0
  9
$SKPOLY
 70
    0
  9
$USRTIMER
 70
    1
  9
$ANGBASE
 50
0
  9
$ANGDIR
 70
    0
  9
$PDMODE
 70
   34
  9
$PDSIZE
 40
0
  9
$PLINEWID
 40
0
  9
$SPLFRAME
 70
    0
  9
$SPLINETYPE
 70
    2
  9
$SPLINESEGS
 70
    8
  9
$HANDSEED
  5
20000
  9
$SURFTAB1
 70
    6
  9
$SURFTAB2
 70
    6
  9
$SURFTYPE
 70
    6
  9
$SURFU
 70
    6
  9
$SURFV
 70
    6
  9
$UCSBASE
  2

  9
$UCSNAME
  2

  9
$UCSORG
 10
0
 20
0
 30
0
  9
$UCSXDIR
 10
1
 20
0
 30
0
  9
$UCSYDIR
 10
0
 20
1
 30
0
  9
$UCSORTHOREF
  2

  9
$UCSORTHOVIEW
 70
    0
  9
$UCSORGTOP
 10
0
 20
0
 30
0
  9
$UCSORGBOTTOM
 10
0
 20
0
 30
0
  9
$UCSORGLEFT
 10
0
 20
0
 30
0
  9
$UCSORGRIGHT
 10
0
 20
0
 30
0
  9
$UCSORGFRONT
 10
0
 20
0
 30
0
  9
$UCSORGBACK
 10
0
 20
0
 30
0
  9
$PUCSBASE
  2

  9
$PUCSNAME
  2

  9
$PUCSORG
 10
0
 20
0
 30
0
  9
$PUCSXDIR
 10
1
 20
0
 30
0
  9
$PUCSYDIR
 10
0
 20
1
 30
0
  9
$PUCSORTHOREF
  2

  9
$PUCSORTHOVIEW
 70
    0
  9
$PUCSORGTOP
 10
0
 20
0
 30
0
  9
$PUCSORGBOTTOM
 10
0
 20
0
 30
0
  9
$PUCSORGLEFT
 10
0
 20
0
 30
0
  9
$PUCSORGRIGHT
 10
0
 20
0
 30
0
  9
$PUCSORGFRONT
 10
0
 20
0
 30
0
  9
$PUCSORGBACK
 10
0
 20
0
 30
0
  9
$USERI1
 70
    0
  9
$USERI2
 70
    0
  9
$USERI3
 70
    0
  9
$USERI4
 70
    0
  9
$USERI5
 70
    0
  9
$USERR1
 40
0
  9
$USERR2
 40
0
  9
$USERR3
 40
0
  9
$USERR4
 40
0
  9
$USERR5
 40
0
  9
$WORLDVIEW
 70
    1
  9
$SHADEDGE
 70
    3
  9
$SHADEDIF
 70
   70
  9
$TILEMODE
 70
    1
  9
$MAXACTVP
 70
   64
  9
$PINSBASE
 10
96.08880994671402
 20
49.96003552397869
 30
0
  9
$PLIMCHECK
 70
    0
  9
$PEXTMIN
 10
0
 20
0
 30
0
  9
$PEXTMAX
 10
0
 20
0
 30
0
  9
$GRIDMODE
 70
    1
  9
$SNAPSTYLE
 70
    0
  9
$GRIDUNIT
 10
0
 20
0
  9
$PLIMMIN
 10
0
 20
0
  9
$PLIMMAX
 10
297
 20
210
  9
$UNITMODE
 70
    0
  9
$VISRETAIN
 70
    1
  9
$PLINEGEN
 70
    0
  9
$PSLTSCALE
 70
    1
  9
$TREEDEPTH
 70
 3020
  9
$CMLSTYLE
  2
Standard
  9
$CMLJUST
 70
    0
  9
$CMLSCALE
 40
20
  9
$PROXYGRAPHICS
 70
    1
  9
$MEASUREMENT
 70
    1
  9
$CELWEIGHT
370
   -1
  9
$ENDCAPS
280
    0
  9
$JOINSTYLE
280
    0
  9
$LWDISPLAY
290
    0
  9
$INSUNITS
 70
    0
  9
$HYPERLINKBASE
  1

  9
$STYLESHEET
  1

  9
$XEDIT
290
    1
  9
$CEPSNTYPE
380
    0
  9
$PSTYLEMODE
290
    1
  9
$EXTNAMES
290
    1
  9
$PSVPSCALE
 40
0.02628777224274129
  9
$OLESTARTUP
290
    0
  9
$SORTENTS
280
  127
  9
$INDEXCTL
280
    0
  9
$HIDETEXT
280
    1
  9
$XCLIPFRAME
290
    0
  9
$HALOGAP
280
    0
  9
$OBSCOLOR
 70
  257
  9
$OBSLTYPE
280
    0
  9
$INTERSECTIONDISPLAY
280
    0
  9
$INTERSECTIONCOLOR
 70
  257
  9
$DIMASSOC
280
    1
  9
$PROJECTNAME
  1

  9
$CAMERADISPLAY
290
    0
  9
$LENSLENGTH
 40
50
  9
$CAMERAHEIGHT
 40
0
  9
$STEPSPERSEC
 40
2
  9
$STEPSIZE
 40
50
  9
$3DDWFPREC
 40
2
  9
$PSOLWIDTH
 40
5
  9
$PSOLHEIGHT
 40
80
  9
$LOFTANG1
 40
1.570796326794897
  9
$LOFTANG2
 40
1.570796326794897
  9
$LOFTMAG1
 40
0
  9
$LOFTMAG2
 40
0
  9
$LOFTPARAM
 70
    7
  9
$LOFTNORMALS
280
    1
  9
$LATITUDE
 40
1
  9
$LONGITUDE
 40
1
  9
$NORTHDIRECTION
 40
0
  9
$TIMEZONE
 70
-8000
  9
$LIGHTGLYPHDISPLAY
280
    1
  9
$TILEMODELIGHTSYNCH
280
    1
  9
$SOLIDHIST
280
    1
  9
$SHOWHIST
280
    1
  9
$DWFFRAME
280
    2
  9
$DGNFRAME
280
    0
  9
$REALWORLDSCALE
290
    1
  9
$INTERFERECOLOR
 62
    1
  9
$CSHADOW
280
    0
  9
$SHADOWPLANELOCATION
 40
0
  0
ENDSEC
  0
SECTION
  2
CLASSES
  0
ENDSEC
  0
SECTION
  2
TABLES
  0
TABLE
  2
VPORT
  5
8
330
0
100
AcDbSymbolTable
 70
    1
  0
VPORT
  5
31
330
2
100
AcDbSymbolTableRecord
100
AcDbViewportTableRecord
  2
*ACTIVE
 70
    0
 10
0
 20
0
 11
1
 21
1
 12
5734.301922189177
 22
3375.077994860619
 13
0
 23
0
 14
10
 24
10
 15
10
 25
10
 16
0
 26
0
 36
1
 17
0
 27
0
 37
0
 40
9181.544413650434
 41
1.805320435308343
 42
50
 43
0
 44
0
 50
0
 51
0
 71
    0
 72
  100
 73
    1
 74
    3
 75
    0
 76
    1
 77
    0
 78
    0
281
    0
 65
    1
110
0
120
0
130
0
111
1
121
0
131
0
112
0
122
1
132
0
 79
    0
146
0
348
10020
 60
    7
 61
    5
292
1
282
    1
141
0
142
0
 63
  250
421
3358443
  0
ENDTAB
  0
TABLE
  2
LTYPE
  5
5
330
0
100
AcDbSymbolTable
 70
    4
  0
LTYPE
  5
14
330
5
100
AcDbSymbolTableRecord
100
AcDbLinetypeTableRecord
  2
ByBlock
 70
    0
  3

 72
   65
 73
    0
 40
0
  0
LTYPE
  5
15
330
5
100
AcDbSymbolTableRecord
100
AcDbLinetypeTableRecord
  2
ByLayer
 70
    0
  3

 72
   65
 73
    0
 40
0
  0
LTYPE
  5
16
330
5
100
AcDbSymbolTableRecord
100
AcDbLinetypeTableRecord
  2
Continuous
 70
    0
  3
Solid line
 72
   65
 73
    0
 40
0
  0
LTYPE
  5
32
330
5
100
AcDbSymbolTableRecord
100
AcDbLinetypeTableRecord
  2
DOT
 70
    0
  3
Dot . . . . . . . . . . . . . . . . . . . . . .
 72
   65
 73
    2
 40
6.35
 49
0
 74
    0
 49
-6.35
 74
    0
  0
LTYPE
  5
33
330
5
100
AcDbSymbolTableRecord
100
AcDbLinetypeTableRecord
  2
DOTTINY
 70
    0
  3
Dot (.15x) .....................................
 72
   65
 73
    2
 40
0.9525
 49
0
 74
    0
 49
-0.9525
 74
    0
  0
LTYPE
  5
34
330
5
100
AcDbSymbolTableRecord
100
AcDbLinetypeTableRecord
  2
DOT2
 70
    0
  3
Dot (.5x) .....................................
 72
   65
 73
    2
 40
3.175
 49
0
 74
    0
 49
-3.175
 74
    0
  0
LTYPE
  5
35
330
5
100
AcDbSymbolTableRecord
100
AcDbLinetypeTableRecord
  2
DOTX2
 70
    0
  3
Dot (2x) .  .  .  .  .  .  .  .  .  .  .  .  .
 72
   65
 73
    2
 40
12.7
 49
0
 74
    0
 49
-12.7
 74
    0
  0
LTYPE
  5
36
330
5
100
AcDbSymbolTableRecord
100
AcDbLinetypeTableRecord
  2
DASHED
 70
    0
  3
Dashed _ _ _ _ _ _ _ _ _ _ _ _ _ _ _ _ _
 72
   65
 73
    2
 40
19.05
 49
12.7
 74
    0
 49
-6.35
 74
    0
  0
LTYPE
  5
37
330
5
100
AcDbSymbolTableRecord
100
AcDbLinetypeTableRecord
  2
DASHEDTINY
 70
    0
  3
Dashed (.15x) _ _ _ _ _ _ _ _ _ _ _ _ _ _ _ _ _
 72
   65
 73
    2
 40
2.8575
 49
1.905
 74
    0
 49
-0.9525
 74
    0
  0
LTYPE
  5
38
330
5
100
AcDbSymbolTableRecord
100
AcDbLinetypeTableRecord
  2
DASHED2
 70
    0
  3
Dashed (.5x) _ _ _ _ _ _ _ _ _ _ _ _ _ _ _ _ _
 72
   65
 73
    2
 40
9.524999999999999
 49
6.35
 74
    0
 49
-3.175
 74
    0
  0
LTYPE
  5
39
330
5
100
AcDbSymbolTableRecord
100
AcDbLinetypeTableRecord
  2
DASHEDX2
 70
    0
  3
Dashed (2x) ____  ____  ____  ____  ____  ___
 72
   65
 73
    2
 40
38.09999999999999
 49
25.4
 74
    0
 49
-12.7
 74
    0
  0
LTYPE
  5
3A
330
5
100
AcDbSymbolTableRecord
100
AcDbLinetypeTableRecord
  2
DASHDOT
 70
    0
  3
Dash dot __ . __ . __ . __ . __ . __ . __ . __
 72
   65
 73
    4
 40
25.4
 49
12.7
 74
    0
 49
-6.35
 74
    0
 49
0
 74
    0
 49
-6.35
 74
    0
  0
LTYPE
  5
3B
330
5
100
AcDbSymbolTableRecord
100
AcDbLinetypeTableRecord
  2
DASHDOTTINY
 70
    0
  3
Dash dot (.15x) _._._._._._._._._._._._._._._.
 72
   65
 73
    4
 40
3.81
 49
1.905
 74
    0
 49
-0.9525
 74
    0
 49
0
 74
    0
 49
-0.9525
 74
    0
  0
LTYPE
  5
3C
330
5
100
AcDbSymbolTableRecord
100
AcDbLinetypeTableRecord
  2
DASHDOT2
 70
    0
  3
Dash dot (.5x) _._._._._._._._._._._._._._._.
 72
   65
 73
    4
 40
12.7
 49
6.35
 74
    0
 49
-3.175
 74
    0
 49
0
 74
    0
 49
-3.175
 74
    0
  0
LTYPE
  5
3D
330
5
100
AcDbSymbolTableRecord
100
AcDbLinetypeTableRecord
  2
DASHDOTX2
 70
    0
  3
Dash dot (2x) ____  .  ____  .  ____  .  ___
 72
   65
 73
    4
 40
50.8
 49
25.4
 74
    0
 49
-12.7
 74
    0
 49
0
 74
    0
 49
-12.7
 74
    0
  0
LTYPE
  5
3E
330
5
100
AcDbSymbolTableRecord
100
AcDbLinetypeTableRecord
  2
DIVIDE
 70
    0
  3
Divide ____ . . ____ . . ____ . . ____ . . ____
 72
   65
 73
    6
 40
31.75
 49
12.7
 74
    0
 49
-6.35
 74
    0
 49
0
 74
    0
 49
-6.35
 74
    0
 49
0
 74
    0
 49
-6.35
 74
    0
  0
LTYPE
  5
3F
330
5
100
AcDbSymbolTableRecord
100
AcDbLinetypeTableRecord
  2
DIVIDETINY
 70
    0
  3
Divide (.15x) __..__..__..__..__..__..__..__.._
 72
   65
 73
    6
 40
4.7625
 49
1.905
 74
    0
 49
-0.9525
 74
    0
 49
0
 74
    0
 49
-0.9525
 74
    0
 49
0
 74
    0
 49
-0.9525
 74
    0
  0
LTYPE
  5
40
330
5
100
AcDbSymbolTableRecord
100
AcDbLinetypeTableRecord
  2
DIVIDE2
 70
    0
  3
Divide (.5x) __..__..__..__..__..__..__..__.._
 72
   65
 73
    6
 40
15.875
 49
6.35
 74
    0
 49
-3.175
 74
    0
 49
0
 74
    0
 49
-3.175
 74
    0
 49
0
 74
    0
 49
-3.175
 74
    0
  0
LTYPE
  5
41
330
5
100
AcDbSymbolTableRecord
100
AcDbLinetypeTableRecord
  2
DIVIDEX2
 70
    0
  3
Divide (2x) ________  .  .  ________  .  .  _
 72
   65
 73
    6
 40
63.5
 49
25.4
 74
    0
 49
-12.7
 74
    0
 49
0
 74
    0
 49
-12.7
 74
    0
 49
0
 74
    0
 49
-12.7
 74
    0
  0
LTYPE
  5
42
330
5
100
AcDbSymbolTableRecord
100
AcDbLinetypeTableRecord
  2
BORDER
 70
    0
  3
Border __ __ . __ __ . __ __ . __ __ . __ __ .
 72
   65
 73
    6
 40
44.45
 49
12.7
 74
    0
 49
-6.35
 74
    0
 49
12.7
 74
    0
 49
-6.35
 74
    0
 49
0
 74
    0
 49
-6.35
 74
    0
  0
LTYPE
  5
43
330
5
100
AcDbSymbolTableRecord
100
AcDbLinetypeTableRecord
  2
BORDERTINY
 70
    0
  3
Border (.15x) __.__.__.__.__.__.__.__.__.__.__.
 72
   65
 73
    6
 40
6.6675
 49
1.905
 74
    0
 49
-0.9525
 74
    0
 49
1.905
 74
    0
 49
-0.9525
 74
    0
 49
0
 74
    0
 49
-0.9525
 74
    0
  0
LTYPE
  5
44
330
5
100
AcDbSymbolTableRecord
100
AcDbLinetypeTableRecord
  2
BORDER2
 70
    0
  3
Border (.5x) __.__.__.__.__.__.__.__.__.__.__.
 72
   65
 73
    6
 40
22.225
 49
6.35
 74
    0
 49
-3.175
 74
    0
 49
6.35
 74
    0
 49
-3.175
 74
    0
 49
0
 74
    0
 49
-3.175
 74
    0
  0
LTYPE
  5
45
330
5
100
AcDbSymbolTableRecord
100
AcDbLinetypeTableRecord
  2
BORDERX2
 70
    0
  3
Border (2x) ____  ____  .  ____  ____  .  ___
 72
   65
 73
    6
 40
88.89999999999999
 49
25.4
 74
    0
 49
-12.7
 74
    0
 49
25.4
 74
    0
 49
-12.7
 74
    0
 49
0
 74
    0
 49
-12.7
 74
    0
  0
LTYPE
  5
46
330
5
100
AcDbSymbolTableRecord
100
AcDbLinetypeTableRecord
  2
CENTER
 70
    0
  3
Center ____ _ ____ _ ____ _ ____ _ ____ _ ____
 72
   65
 73
    4
 40
50.8
 49
31.75
 74
    0
 49
-6.35
 74
    0
 49
6.35
 74
    0
 49
-6.35
 74
    0
  0
LTYPE
  5
47
330
5
100
AcDbSymbolTableRecord
100
AcDbLinetypeTableRecord
  2
CENTERTINY
 70
    0
  3
Center (.15x) ___ _ ___ _ ___ _ ___ _ ___ _ ___
 72
   65
 73
    4
 40
7.619999999999999
 49
4.7625
 74
    0
 49
-0.9525
 74
    0
 49
0.9525
 74
    0
 49
-0.9525
 74
    0
  0
LTYPE
  5
48
330
5
100
AcDbSymbolTableRecord
100
AcDbLinetypeTableRecord
  2
CENTER2
 70
    0
  3
Center (.5x) ___ _ ___ _ ___ _ ___ _ ___ _ ___
 72
   65
 73
    4
 40
28.575
 49
19.05
 74
    0
 49
-3.175
 74
    0
 49
3.175
 74
    0
 49
-3.175
 74
    0
  0
LTYPE
  5
49
330
5
100
AcDbSymbolTableRecord
100
AcDbLinetypeTableRecord
  2
CENTERX2
 70
    0
  3
Center (2x) ________  __  ________  __  _____
 72
   65
 73
    4
 40
101.6
 49
63.5
 74
    0
 49
-12.7
 74
    0
 49
12.7
 74
    0
 49
-12.7
 74
    0
  0
ENDTAB
  0
TABLE
  2
LAYER
  5
2
330
0
100
AcDbSymbolTable
 70
    1
  0
LAYER
  5
10
330
2
100
AcDbSymbolTableRecord
100
AcDbLayerTableRecord
  2
0
 70
    4
 62
    7
  6
CONTINUOUS
370
    0
390
F
  0
LAYER
  5
4A
330
2
100
AcDbSymbolTableRecord
100
AcDbLayerTableRecord
  2
Quadro Elettrico
 70
    0
 62
    7
  6
CONTINUOUS
370
    0
390
F
  0
LAYER
  5
4B
330
2
100
AcDbSymbolTableRecord
100
AcDbLayerTableRecord
  2
bollitore
 70
    4
 62
    7
  6
CONTINUOUS
370
    0
390
F
  0
LAYER
  5
4C
330
2
100
AcDbSymbolTableRecord
100
AcDbLayerTableRecord
  2
estrusore
 70
    4
 62
    7
  6
CONTINUOUS
370
    0
390
F
  0
LAYER
  5
4D
330
2
100
AcDbSymbolTableRecord
100
AcDbLayerTableRecord
  2
formatrice
 70
    4
 62
    7
  6
CONTINUOUS
370
    0
390
F
  0
LAYER
  5
4E
330
2
100
AcDbSymbolTableRecord
100
AcDbLayerTableRecord
  2
quote
 70
    0
 62
    5
  6
CONTINUOUS
370
    0
390
F
  0
LAYER
  5
4F
330
2
100
AcDbSymbolTableRecord
100
AcDbLayerTableRecord
  2
trasporto uscita
 70
    4
 62
    7
  6
CONTINUOUS
370
    0
390
F
  0
LAYER
  5
50
330
2
100
AcDbSymbolTableRecord
100
AcDbLayerTableRecord
  2
uscita
 70
    4
 62
    7
  6
CONTINUOUS
370
    0
390
F
  0
ENDTAB
  0
TABLE
  2
STYLE
  5
3
330
0
100
AcDbSymbolTable
 70
    3
  0
STYLE
  5
51
330
2
100
AcDbSymbolTableRecord
100
AcDbTextStyleTableRecord
  2
standard
 70
    0
 40
0
 41
1
 50
0
 71
    0
 42
1
  3
standard
  4

  0
ENDTAB
  0
TABLE
  2
VIEW
  5
6
330
0
100
AcDbSymbolTable
 70
    0
  0
ENDTAB
  0
TABLE
  2
UCS
  5
7
330
0
100
AcDbSymbolTable
 70
    0
  0
ENDTAB
  0
TABLE
  2
APPID
  5
9
330
0
100
AcDbSymbolTable
 70
    1
  0
APPID
  5
12
330
9
100
AcDbSymbolTableRecord
100
AcDbRegAppTableRecord
  2
ACAD
 70
    0
  0
APPID
  5
52
330
9
100
AcDbSymbolTableRecord
100
AcDbRegAppTableRecord
  2
LibreCad
 70
    0
  0
ENDTAB
  0
TABLE
  2
DIMSTYLE
  5
A
330
0
100
AcDbSymbolTable
 70
    1
100
AcDbDimStyleTable
 71
    1
  0
DIMSTYLE
105
53
330
A
100
AcDbSymbolTableRecord
100
AcDbDimStyleTableRecord
  2
Standard
 70
    0
 40
100
 41
2.5
 42
0.625
 43
0.38
 44
1.25
 45
0
 46
0
 47
0
 48
0
 49
1
140
2.5
141
0.09
142
0
143
25.4
144
1
145
0
146
1
147
0.625
148
0
 71
    0
 72
    0
 73
    0
 74
    1
 75
    0
 76
    0
 77
    0
 78
    1
 79
    0
170
    0
171
    2
172
    0
173
    0
174
    0
175
    0
176
    0
177
    0
178
    0
179
    2
271
    0
272
    4
273
    2
274
    2
275
    0
276
    0
277
    2
278
    0
279
    0
280
    0
281
    0
282
    0
283
    1
284
    0
285
    0
286
    0
288
    0
289
    3
340
standard
341

371
   -2
372
   -2
  0
ENDTAB
  0
TABLE
  2
BLOCK_RECORD
  5
1
330
0
100
AcDbSymbolTable
 70
    2
  0
BLOCK_RECORD
  5
1F
330
1
100
AcDbSymbolTableRecord
100
AcDbBlockTableRecord
  2
*Model_Space
 70
    0
280
    1
281
    0
  0
BLOCK_RECORD
  5
1E
330
1
100
AcDbSymbolTableRecord
100
AcDbBlockTableRecord
  2
*Paper_Space
 70
    0
280
    1
281
    0
  0
BLOCK_RECORD
  5
54
330
1
100
AcDbSymbolTableRecord
100
AcDbBlockTableRecord
  2
*D1
 70
    0
280
    1
281
    0
  0
BLOCK_RECORD
  5
57
330
1
100
AcDbSymbolTableRecord
100
AcDbBlockTableRecord
  2
*D3
 70
    0
280
    1
281
    0
  0
BLOCK_RECORD
  5
5A
330
1
100
AcDbSymbolTableRecord
100
AcDbBlockTableRecord
  2
*D2
 70
    0
280
    1
281
    0
  0
BLOCK_RECORD
  5
5D
330
1
100
AcDbSymbolTableRecord
100
AcDbBlockTableRecord
  2
*D4
 70
    0
280
    1
281
    0
  0
ENDTAB
  0
ENDSEC
  0
SECTION
  2
BLOCKS
  0
BLOCK
  5
20
330
1F
100
AcDbEntity
  8
0
100
AcDbBlockBegin
  2
*Model_Space
 70
    0
 10
0
 20
0
 30
0
  3
*Model_Space
  1

  0
ENDBLK
  5
21
330
1F
100
AcDbEntity
  8
0
100
AcDbBlockEnd
  0
BLOCK
  5
1C
330
1B
100
AcDbEntity
  8
0
100
AcDbBlockBegin
  2
*Paper_Space
 70
    0
 10
0
 20
0
 30
0
  3
*Paper_Space
  1

  0
ENDBLK
  5
1D
330
1F
100
AcDbEntity
  8
0
100
AcDbBlockEnd
  0
BLOCK
  5
55
330
54
100
AcDbEntity
  8
0
100
AcDbBlockBegin
  2
*D1
 70
    1
 10
0
 20
0
  3
*D1
  1

  0
LINE
  5
60
100
AcDbEntity
  8
quote
  6
ByBlock
 62
    0
370
   -2
100
AcDbLine
 10
-97.69962616701741
 20
5300
 11
4600
 21
5300
  0
SOLID
  5
61
100
AcDbEntity
  8
quote
  6
ByBlock
 62
    0
370
   -2
100
AcDbTrace
 10
-97.69962616701741
 20
5300
 30
0
 11
152.3003738329826
 21
5341.628465777284
 31
0
 12
152.3003738329826
 22
5258.371534222716
 32
0
 13
152.3003738329826
 23
5258.371534222716
 33
0
  0
SOLID
  5
62
100
AcDbEntity
  8
quote
  6
ByBlock
 62
    0
370
   -2
100
AcDbTrace
 10
4600
 20
5300
 30
0
 11
4350
 21
5258.371534222716
 31
0
 12
4350
 22
5341.628465777284
 32
0
 13
4350
 23
5341.628465777284
 33
0
  0
MTEXT
  5
63
100
AcDbEntity
  8
quote
  6
CONTINUOUS
 62
    0
370
   -2
100
AcDbMText
 10
2251.150186916491
 20
5487.5
 30
0
 40
250
 41
722.2222222222379
 71
    5
 72
    1
  1
4698
  7
standard
210
0
220
0
230
1
 50
0
 73
    2
 44
1
  0
LINE
  5
64
100
AcDbEntity
  8
quote
  6
ByBlock
 62
    0
370
   -2
100
AcDbLine
 10
-97.6996261670175
 20
5162.5
 11
-97.69962616701733
 21
5425
  0
LINE
  5
65
100
AcDbEntity
  8
quote
  6
ByBlock
 62
    0
370
   -2
100
AcDbLine
 10
4600
 20
5162.5
 11
4600
 21
5425
  0
ENDBLK
  5
56
330
54
100
AcDbEntity
  8
0
100
AcDbBlockEnd
  0
BLOCK
  5
58
330
57
100
AcDbEntity
  8
0
100
AcDbBlockBegin
  2
*D3
 70
    1
 10
0
 20
0
  3
*D3
  1

  0
LINE
  5
66
100
AcDbEntity
  8
quote
  6
ByBlock
 62
    0
370
   -2
100
AcDbLine
 10
-2000
 20
5080.380560684914
 11
-2000
 21
-250
  0
SOLID
  5
67
100
AcDbEntity
  8
quote
  6
ByBlock
 62
    0
370
   -2
100
AcDbTrace
 10
-2000
 20
5080.380560684914
 30
0
 11
-1958.371534222716
 21
4830.380560684914
 31
0
 12
-2041.628465777284
 22
4830.380560684914
 32
0
 13
-2041.628465777284
 23
4830.380560684914
 33
0
  0
SOLID
  5
68
100
AcDbEntity
  8
quote
  6
ByBlock
 62
    0
370
   -2
100
AcDbTrace
 10
-2000
 20
-250
 30
0
 11
-2041.628465777284
 21
0
 31
0
 12
-1958.371534222716
 22
0
 32
0
 13
-1958.371534222716
 23
0
 33
0
  0
MTEXT
  5
69
100
AcDbEntity
  8
quote
  6
CONTINUOUS
 62
    0
370
   -2
100
AcDbMText
 10
-2187.5
 20
2415.190280342457
 30
0
 40
250
 41
694.444444444491
 71
    5
 72
    1
  1
5330
  7
standard
210
0
220
0
230
1
 50
90
 73
    2
 44
1
  0
LINE
  5
6A
100
AcDbEntity
  8
quote
  6
ByBlock
 62
    0
370
   -2
100
AcDbLine
 10
-162.5
 20
5080.380560684913
 11
-2125
 21
5080.380560684914
  0
LINE
  5
6B
100
AcDbEntity
  8
quote
  6
ByBlock
 62
    0
370
   -2
100
AcDbLine
 10
-1162.5
 20
-250
 11
-2125
 21
-250
  0
ENDBLK
  5
59
330
57
100
AcDbEntity
  8
0
100
AcDbBlockEnd
  0
BLOCK
  5
5B
330
5A
100
AcDbEntity
  8
0
100
AcDbBlockBegin
  2
*D2
 70
    1
 10
0
 20
0
  3
*D2
  1

  0
LINE
  5
6C
100
AcDbEntity
  8
quote
  6
ByBlock
 62
    0
370
   -2
100
AcDbLine
 10
-1100
 20
-1300
 11
4800
 21
-1300
  0
SOLID
  5
6D
100
AcDbEntity
  8
quote
  6
ByBlock
 62
    0
370
   -2
100
AcDbTrace
 10
-1100
 20
-1300
 30
0
 11
-850
 21
-1258.371534222716
 31
0
 12
-850
 22
-1341.628465777284
 32
0
 13
-850
 23
-1341.628465777284
 33
0
  0
SOLID
  5
6E
100
AcDbEntity
  8
quote
  6
ByBlock
 62
    0
370
   -2
100
AcDbTrace
 10
4800
 20
-1300
 30
0
 11
4550
 21
-1341.628465777284
 31
0
 12
4550
 22
-1258.371534222716
 32
0
 13
4550
 23
-1258.371534222716
 33
0
  0
MTEXT
  5
6F
100
AcDbEntity
  8
quote
  6
CONTINUOUS
 62
    0
370
   -2
100
AcDbMText
 10
1850
 20
-1112.5
 30
0
 40
250
 41
694.44444444446
 71
    5
 72
    1
  1
5900
  7
standard
210
0
220
0
230
1
 50
0
 73
    2
 44
1
  0
LINE
  5
70
100
AcDbEntity
  8
quote
  6
ByBlock
 62
    0
370
   -2
100
AcDbLine
 10
-1100
 20
-293.4263891220414
 11
-1100
 21
-1425
  0
LINE
  5
71
100
AcDbEntity
  8
quote
  6
ByBlock
 62
    0
370
   -2
100
AcDbLine
 10
4800
 20
1237.5
 11
4800
 21
-1425
  0
ENDBLK
  5
5C
330
5A
100
AcDbEntity
  8
0
100
AcDbBlockEnd
  0
BLOCK
  5
5E
330
5D
100
AcDbEntity
  8
0
100
AcDbBlockBegin
  2
*D4
 70
    1
 10
0
 20
0
  3
*D4
  1

  0
LINE
  5
72
100
AcDbEntity
  8
quote
  6
ByBlock
 62
    0
370
   -2
100
AcDbLine
 10
6297.184995674141
 20
-1300
 11
4800
 21
-1300
  0
SOLID
  5
73
100
AcDbEntity
  8
quote
  6
ByBlock
 62
    0
370
   -2
100
AcDbTrace
 10
6297.184995674141
 20
-1300
 30
0
 11
6047.184995674141
 21
-1341.628465777284
 31
0
 12
6047.184995674141
 22
-1258.371534222716
 32
0
 13
6047.184995674141
 23
-1258.371534222716
 33
0
  0
SOLID
  5
74
100
AcDbEntity
  8
quote
  6
ByBlock
 62
    0
370
   -2
100
AcDbTrace
 10
4800
 20
-1300
 30
0
 11
5050
 21
-1258.371534222716
 31
0
 12
5050
 22
-1341.628465777284
 32
0
 13
5050
 23
-1341.628465777284
 33
0
  0
MTEXT
  5
75
100
AcDbEntity
  8
quote
  6
CONTINUOUS
 62
    0
370
   -2
100
AcDbMText
 10
5548.59249783707
 20
-1112.5
 30
0
 40
250
 41
666.6666666666667
 71
    5
 72
    1
  1
1497
  7
standard
210
0
220
0
230
1
 50
360
 73
    2
 44
1
  0
LINE
  5
76
100
AcDbEntity
  8
quote
  6
ByBlock
 62
    0
370
   -2
100
AcDbLine
 10
6297.184995674141
 20
937.5
 11
6297.184995674141
 21
-1425
  0
LINE
  5
77
100
AcDbEntity
  8
quote
  6
ByBlock
 62
    0
370
   -2
100
AcDbLine
 10
4800
 20
1237.5
 11
4800
 21
-1425
  0
ENDBLK
  5
5F
330
5D
100
AcDbEntity
  8
0
100
AcDbBlockEnd
  0
ENDSEC
  0
SECTION
  2
ENTITIES
  0
LWPOLYLINE
  5
78
100
AcDbEntity
  8
formatrice
  6
ByLayer
 62
  256
370
   -1
100
AcDbPolyline
 90
    4
 70
    1
 43
0
 10
0
 20
640
 10
238.6514097452164
 20
640
 10
238.6514097452164
 20
0
 10
0
 20
0
  0
LWPOLYLINE
  5
79
100
AcDbEntity
  8
formatrice
  6
ByLayer
 62
  256
370
   -1
100
AcDbPolyline
 90
    4
 70
    1
 43
0
 10
238.6514097452164
 20
602.4492904543877
 10
2997.694537043571
 20
602.4492904543877
 10
2997.694537043571
 20
640
 10
238.6514097452164
 20
640
  0
LWPOLYLINE
  5
7A
100
AcDbEntity
  8
formatrice
  6
ByLayer
 62
  256
370
   -1
100
AcDbPolyline
 90
    4
 70
    1
 43
0
 10
238.6514097452164
 20
0
 10
3000
 20
0
 10
3000
 20
37.83497959375381
 10
238.6514097452164
 20
37.83497959375381
  0
LWPOLYLINE
  5
7B
100
AcDbEntity
  8
formatrice
  6
ByLayer
 62
  256
370
   -1
100
AcDbPolyline
 90
    4
 70
    1
 43
0
 10
1600
 20
-60
 10
2500
 20
-60
 10
2500
 20
700
 10
1600
 20
700
  0
LWPOLYLINE
  5
7C
100
AcDbEntity
  8
formatrice
  6
ByLayer
 62
  256
370
   -1
100
AcDbPolyline
 90
    4
 70
    1
 43
0
 10
1600
 20
700
 10
1600
 20
700
 10
1600
 20
700
 10
1600
 20
700
  0
LWPOLYLINE
  5
7D
100
AcDbEntity
  8
formatrice
  6
ByLayer
 62
  256
370
   -1
100
AcDbPolyline
 90
    4
 70
    1
 43
0
 10
2500
 20
850
 10
1600
 20
850
 10
1600
 20
700
 10
2500
 20
700
  0
LINE
  5
7E
100
AcDbEntity
  8
formatrice
  6
ByLayer
 62
  256
370
   -1
100
AcDbLine
 10
2099.609375000005
 20
850
 11
2099.609375000005
 21
700
  0
LINE
  5
7F
100
AcDbEntity
  8
formatrice
  6
ByLayer
 62
  256
370
   -1
100
AcDbLine
 10
1600
 20
-60
 11
1600
 21
-130
  0
LINE
  5
80
100
AcDbEntity
  8
formatrice
  6
ByLayer
 62
  256
370
   -1
100
AcDbLine
 10
1600
 20
-130
 11
1900
 21
-260
  0
LINE
  5
81
100
AcDbEntity
  8
formatrice
  6
ByLayer
 62
  256
370
   -1
100
AcDbLine
 10
1900
 20
-260
 11
1898.956298828131
 21
-60
  0
LWPOLYLINE
  5
82
100
AcDbEntity
  8
formatrice
  6
ByLayer
 62
  256
370
   -1
100
AcDbPolyline
 90
    4
 70
    1
 43
0
 10
1900
 20
-260
 10
2500
 20
-260
 10
2500
 20
-60
 10
1900
 20
-60
  0
LWPOLYLINE
  5
83
100
AcDbEntity
  8
formatrice
  6
ByLayer
 62
  256
370
   -1
100
AcDbPolyline
 90
    4
 70
    1
 43
0
 10
2500
 20
195.5413608811803
 10
3700
 20
195.5413608811803
 10
3700
 20
500
 10
2500
 20
500
  0
LWPOLYLINE
  5
84
100
AcDbEntity
  8
formatrice
  6
ByLayer
 62
  256
370
   -1
100
AcDbPolyline
 90
    4
 70
    1
 43
0
 10
2500
 20
500
 10
3700
 20
500
 10
3700
 20
540
 10
2500
 20
540
  0
LWPOLYLINE
  5
85
100
AcDbEntity
  8
formatrice
  6
ByLayer
 62
  256
370
   -1
100
AcDbPolyline
 90
    4
 70
    1
 43
0
 10
2500
 20
195.5413608811803
 10
3700
 20
195.5413608811803
 10
3700
 20
160
 10
2500
 20
160
  0
LWPOLYLINE
  5
86
100
AcDbEntity
  8
formatrice
  6
ByLayer
 62
  256
370
   -1
100
AcDbPolyline
 90
    4
 70
    1
 43
0
 10
2214.619598817095
 20
602.4492904543877
 10
2260.094333905742
 20
602.4492904543877
 10
2260.094333905742
 20
37.83497959375381
 10
2214.619598817095
 20
37.83497959375381
  0
LWPOLYLINE
  5
87
100
AcDbEntity
  8
formatrice
  6
ByLayer
 62
  256
370
   -1
100
AcDbPolyline
 90
    4
 70
    1
 43
0
 10
2150
 20
430
 10
2340
 20
430
 10
2340
 20
170
 10
2150
 20
170
  0
LWPOLYLINE
  5
88
100
AcDbEntity
  8
formatrice
  6
ByLayer
 62
  256
370
   -1
100
AcDbPolyline
 90
    4
 70
    1
 43
0
 10
1925.97508430483
 20
602.4492904543877
 10
2181.157469749473
 20
602.4492904543877
 10
2181.157469749473
 20
37.83497959375381
 10
1925.97508430483
 20
37.83497959375381
  0
LWPOLYLINE
  5
89
100
AcDbEntity
  8
formatrice
  6
ByLayer
 62
  256
370
   -1
100
AcDbPolyline
 90
    4
 70
    1
 43
0
 10
2500
 20
427.4625098332808
 10
3700
 20
427.4625098332808
 10
3700
 20
372.8928277269046
 10
2500
 20
372.8928277269046
  0
LWPOLYLINE
  5
8A
100
AcDbEntity
  8
formatrice
  6
ByLayer
 62
  256
370
   -1
100
AcDbPolyline
 90
    4
 70
    1
 43
0
 10
1211.446942761554
 20
602.4492904543877
 10
1604.348653927463
 20
602.4492904543877
 10
1604.348653927463
 20
37.83497959375381
 10
1211.446942761554
 20
37.83497959375381
  0
LWPOLYLINE
  5
8B
100
AcDbEntity
  8
formatrice
  6
ByLayer
 62
  256
370
   -1
100
AcDbPolyline
 90
    4
 70
    1
 43
0
 10
238.6514097452164
 20
343.3227539062547
 10
1211.446942761554
 20
343.3227539062547
 10
1211.446942761554
 20
305.5902197957081
 10
238.6514097452164
 20
305.5902197957081
  0
LWPOLYLINE
  5
8C
100
AcDbEntity
  8
uscita
  6
ByLayer
 62
  256
370
   -1
100
AcDbPolyline
 90
    4
 70
    1
 43
0
 10
3000
 20
0
 10
4600
 20
0
 10
4600
 20
600
 10
3000
 20
600
  0
LWPOLYLINE
  5
8D
100
AcDbEntity
  8
uscita
  6
ByLayer
 62
  256
370
   -1
100
AcDbPolyline
 90
    4
 70
    1
 43
0
 10
4600
 20
0
 10
4700
 20
0
 10
4700
 20
600
 10
4600
 20
600
  0
LWPOLYLINE
  5
8E
100
AcDbEntity
  8
uscita
  6
ByLayer
 62
  256
370
   -1
100
AcDbPolyline
 90
    4
 70
    1
 43
0
 10
3000
 20
640
 10
4700
 20
640
 10
4700
 20
600
 10
3000
 20
600
  0
LWPOLYLINE
  5
8F
100
AcDbEntity
  8
uscita
  6
ByLayer
 62
  256
370
   -1
100
AcDbPolyline
 90
    4
 70
    1
 43
0
 10
3000
 20
37.83497959375381
 10
4600
 20
37.83497959375381
 10
4600
 20
0
 10
3000
 20
0
  0
LWPOLYLINE
  5
90
100
AcDbEntity
  8
bollitore
  6
ByLayer
 62
  256
370
   -1
100
AcDbPolyline
 90
    4
 70
    1
 43
0
 10
4597.211500367938
 20
640
 10
3700
 20
640
 10
3700
 20
1300
 10
4597.211500367938
 20
1300
  0
LWPOLYLINE
  5
91
100
AcDbEntity
  8
bollitore
  6
ByLayer
 62
  256
370
   -1
100
AcDbPolyline
 90
    4
 70
    1
 43
0
 10
4800
 20
1300
 10
3300
 20
1300
 10
3300
 20
3800
 10
4800
 20
3800
  0
LWPOLYLINE
  5
92
100
AcDbEntity
  8
bollitore
  6
ByLayer
 62
  256
370
   -1
100
AcDbPolyline
 90
    4
 70
    1
 43
0
 10
4597.211500367971
 20
3800
 10
3700
 20
3800
 10
3700
 20
4400
 10
4597.211500367971
 20
4400
  0
LWPOLYLINE
  5
93
100
AcDbEntity
  8
formatrice
  6
ByLayer
 62
  256
370
   -1
100
AcDbPolyline
 90
    4
 70
    1
 43
0
 10
400
 20
0
 10
3400
 20
0
 10
3400
 20
640
 10
400
 20
640
  0
LWPOLYLINE
  5
94
100
AcDbEntity
  8
trasporto uscita
  6
ByLayer
 62
  256
370
   -1
100
AcDbPolyline
 90
    4
 70
    1
 43
0
 10
4597.211500367971
 20
4400
 10
-100
 20
4400
 10
-100
 20
5100
 10
4597.211500367971
 20
5100
  0
LWPOLYLINE
  5
95
100
AcDbEntity
  8
trasporto uscita
  6
ByLayer
 62
  256
370
   -1
100
AcDbPolyline
 90
    4
 70
    1
 43
0
 10
4597.211500367971
 20
4785.061236134573
 10
-100
 20
4785.061236134573
 10
-100
 20
4696.243394164558
 10
4597.211500367971
 20
4696.243394164558
  0
LWPOLYLINE
  5
96
100
AcDbEntity
  8
estrusore
  6
ByLayer
 62
  256
370
   -1
100
AcDbPolyline
 90
    4
 70
    1
 43
0
 10
-1100
 20
-250
 10
200
 20
-250
 10
200
 20
850
 10
-1100
 20
850
  0
LWPOLYLINE
  5
97
100
AcDbEntity
  8
estrusore
  6
ByLayer
 62
  256
370
   -1
100
AcDbPolyline
 90
    4
 70
    1
 43
0
 10
200
 20
407.8183650970661
 10
600
 20
407.8183650970661
 10
600
 20
253.9157867431729
 10
200
 20
253.9157867431729
  0
LWPOLYLINE
  5
98
100
AcDbEntity
  8
estrusore
  6
ByLayer
 62
  256
370
   -1
100
AcDbPolyline
 90
    4
 70
    1
 43
0
 10
-200
 20
270
 10
-700
 20
270
 10
-700
 20
390
 10
-200
 20
390
  0
LINE
  5
99
100
AcDbEntity
  8
estrusore
  6
ByLayer
 62
  256
370
   -1
100
AcDbLine
 10
-700
 20
390
 11
-1100
 21
850
  0
LINE
  5
9A
100
AcDbEntity
  8
estrusore
  6
ByLayer
 62
  256
370
   -1
100
AcDbLine
 10
-700
 20
270
 11
-1100
 21
-250
  0
LINE
  5
9B
100
AcDbEntity
  8
estrusore
  6
ByLayer
 62
  256
370
   -1
100
AcDbLine
 10
-200
 20
270
 11
200
 21
-250
  0
LINE
  5
9C
100
AcDbEntity
  8
estrusore
  6
ByLayer
 62
  256
370
   -1
100
AcDbLine
 10
-200
 20
390
 11
200
 21
850
  0
DIMENSION
  5
9D
100
AcDbEntity
  8
quote
  6
ByLayer
 62
  256
370
   -1
100
AcDbDimension
  2
*D1
 10
4600
 20
5300
 30
0
 11
2251.150186916491
 21
5487.5
 31
0
 70
   32
 71
    5
  3
Standard
 53
0
210
0
220
0
230
1
100
AcDbAlignedDimension
 13
-97.69962616701754
 23
5100
 33
0
 14
4600
 24
5100
 34
0
100
AcDbRotatedDimension
  0
DIMENSION
  5
9E
100
AcDbEntity
  8
quote
  6
ByLayer
 62
  256
370
   -1
100
AcDbDimension
  2
*D2
 10
4800
 20
-1300
 30
0
 11
1850
 21
-1112.5
 31
0
 70
   32
 71
    5
  3
Standard
 53
0
210
0
220
0
230
1
100
AcDbAlignedDimension
 13
-1100
 23
-230.9263891220414
 33
0
 14
4800
 24
1300
 34
0
100
AcDbRotatedDimension
  0
DIMENSION
  5
9F
100
AcDbEntity
  8
quote
  6
ByLayer
 62
  256
370
   -1
100
AcDbDimension
  2
*D3
 10
-2000
 20
-250
 30
0
 11
-2187.5
 21
2415.190280342457
 31
0
 70
   32
 71
    5
  3
Standard
 53
0
210
0
220
0
230
1
100
AcDbAlignedDimension
 13
-100
 23
5080.380560684913
 33
0
 14
-1100
 24
-250
 34
0
 50
90
100
AcDbRotatedDimension
  0
LWPOLYLINE
  5
A0
100
AcDbEntity
  8
Quadro Elettrico
  6
ByLayer
 62
  256
370
   -1
100
AcDbPolyline
 90
    4
 70
    1
 43
0
 10
6300
 20
1000
 10
6000
 20
1000
 10
6000
 20
1800
 10
6300
 20
1800
  0
LINE
  5
A1
100
AcDbEntity
  8
Quadro Elettrico
  6
ByLayer
 62
  256
370
   -1
100
AcDbLine
 10
6000
 20
1800
 11
5200
 21
1800
  0
ARC
  5
A2
100
AcDbEntity
  8
Quadro Elettrico
  6
ByLayer
 62
  256
370
   -1
100
AcDbCircle
 10
6000
 20
1800
 40
800
100
AcDbArc
 50
180
 51
270
  0
DIMENSION
  5
A3
100
AcDbEntity
  8
quote
  6
ByLayer
 62
  256
370
   -1
100
AcDbDimension
  2
*D4
 10
4800
 20
-1300
 30
0
 11
5548.59249783707
 21
-1112.5
 31
0
 70
   32
 71
    5
  3
Standard
 53
0
210
0
220
0
230
1
100
AcDbAlignedDimension
 13
6297.184995674141
 23
1000
 33
0
 14
4800
 24
1300
 34
0
100
AcDbRotatedDimension
  0
MTEXT
  5
A4
100
AcDbEntity
  8
quote
  6
ByLayer
 62
  256
370
   -1
100
AcDbMText
 10
6000
 20
2000
 30
0
 40
100
 41
211.1111111111111
 71
    1
 72
    1
  1
Q.E.
  7
standard
210
0
220
0
230
1
 50
0
 73
    2
 44
1
  0
MTEXT
  5
A5
100
AcDbEntity
  8
quote
  6
ByLayer
 62
  256
370
   -1
100
AcDbMText
 10
4000
 20
3000
 30
0
 40
100
 41
544.4444444444445
 71
    1
 72
    1
  1
Bollitore
  7
standard
210
0
220
0
230
1
 50
0
 73
    2
 44
1
  0
MTEXT
  5
A6
100
AcDbEntity
  8
quote
  6
ByLayer
 62
  256
370
   -1
100
AcDbMText
 10
1900
 20
-260
 30
0
 40
100
 41
677.777777777787
 71
    1
 72
    1
  1
Formatrice
  7
standard
210
0
220
0
230
1
 50
0
 73
    2
 44
1
  0
MTEXT
  5
A7
100
AcDbEntity
  8
quote
  6
ByLayer
 62
  256
370
   -1
100
AcDbMText
 10
-1000
 20
1000
 30
0
 40
100
 41
633.333436190773
 71
    1
 72
    1
  1
Estrusore
  7
standard
210
0
220
0
230
1
 50
0
 73
    2
 44
1
  0
MTEXT
  5
A8
100
AcDbEntity
  8
quote
  6
ByLayer
 62
  256
370
   -1
100
AcDbMText
 10
-100
 20
4400
 30
0
 40
100
 41
1130.555658413004
 71
    1
 72
    1
  1
Trasporto Uscita
  7
standard
210
0
220
0
230
1
 50
0
 73
    2
 44
1
  0
ENDSEC
  0
SECTION
  2
OBJECTS
  0
DICTIONARY
  5
C
330
0
100
AcDbDictionary
281
    1
  3
ACAD_GROUP
350
D
  0
DICTIONARY
  5
D
330
C
100
AcDbDictionary
281
    1
  0
ENDSEC
  0
EOF
